Статистика раздачи
Размер:  3,6 GB   |    Зарегистрирован:  4 месяца 7 дней   |    Скачан:  0 раз
DL-List: Нет

Полного источника не было: Никогда

 
     
 
 

MAGNAT ®

Пол:
Мужской
Стаж:
1 год 4 месяца
Сообщений:
8807

Пришельцы из прошлого / Иммигранты / Fremvandrerne / Beforeigners
Год выпуска: 2019
Страна: Норвегия
Жанр: Фантастика, драма
Продолжительность: ~ 00:46:00
Перевод: Профессиональный (многоголосый закадровый) Ideafilm
Режиссёр: Йенс Льен / Jens Lien
В ролях: Николай Клеве Брок, Криста Косонен, Аугуста Эва Эрлендсдоттир, Стиг Р. Амдам, Рагнхильд Гудбрансен, Лавранс Хага, Эйли Харбо, Надер Хадеми, Йеппе Бек Лаурсен, Ингунн Беате Ёйен
Описание: В современном мире начинают появляться пришельцы из прошлого. Гости прибывают из каменного века, эпохи викингов и позднего XIX века. Они не знают, как здесь оказались, и не представляют, как вернуться назад. Спустя несколько лет сосуществования викинг Альфхильдра поступает на службу в полицию, чтобы вместе с детективом Ларсом Холландом найти убийц других пришельцев и попутно раскрыть причину их появления.
Качество: WEBRip
Формат: AVI
Видео: XviD, 720x400 (16:9), ~1465 kbps, 25.000 fps
Аудио Rus: AC3, 48 kHz, 2 ch, 192 kbps
Аудио Nor: AC3, 48 kHz, 2 ch, 192 kbps
Субтитры: отсутствуют
Реклама: отсутствует

MediaInfo

Общее
Полное имя : H:\Downloads\Beforeigners. Season 1 (WEBRip l 400p l Ideafilm)\Beforeigners.S01E01.2019.WEBRip.Ideafilm.avi
Формат : AVI
Формат/Информация : Audio Video Interleave
Размер файла : 655 Мбайт
Продолжительность : 49 м. 2 с.
Общий поток : 1866 Кбит/сек
Программа кодирования : VirtualDubMod 1.5.10.2 (build 2542/release)
Библиотека кодирования : VirtualDubMod build 2542/release
Видео
Идентификатор : 0
Формат : MPEG-4 Visual
Профиль формата : Advanced Simple@L5
Параметр BVOP формата : 1
Параметр QPel формата : Нет
Параметр GMC формата : Без точки перехода
Параметр матрицы формата : Default (H.263)
Идентификатор кодека : XVID
Идентификатор кодека/Подсказка : XviD
Продолжительность : 49 м. 2 с.
Битрейт : 1468 Кбит/сек
Ширина : 720 пикселей
Высота : 400 пикселей
Соотношение сторон : 16:9
Частота кадров : 25,000 кадров/сек
Цветовое пространство : YUV
Субдискретизация насыщенности : 4:2:0
Битовая глубина : 8 бит
Тип развёртки : Прогрессивная
Метод сжатия : С потерями
Бит/(Пиксели*Кадры) : 0.204
Размер потока : 515 Мбайт (79%)
Библиотека кодирования : XviD 67
Аудио #1
Идентификатор : 1
Формат : AC-3
Формат/Информация : Audio Coding 3
Параметр Endianness формата : Big
Идентификатор кодека : 2000
Продолжительность : 49 м. 2 с.
Вид битрейта : Постоянный
Битрейт : 192 Кбит/сек
Каналы : 2 канала
Расположение каналов : Front: L R
Частота : 48,0 КГц
Частота кадров : 31,250 кадров/сек (1536 SPF)
Битовая глубина : 16 бит
Метод сжатия : С потерями
Размер потока : 67,3 Мбайт (10%)
Выравнивание : Разделение по промежуткам
Продолжительность промежутка : 40 мс. (1,00 видеокадр)
Время предзагрузки промежутка : 500 мс.
ServiceKind/String : Complete Main
Аудио #2
Идентификатор : 2
Формат : AC-3
Формат/Информация : Audio Coding 3
Параметр Endianness формата : Big
Идентификатор кодека : 2000
Продолжительность : 49 м. 2 с.
Вид битрейта : Постоянный
Битрейт : 192 Кбит/сек
Каналы : 2 канала
Расположение каналов : Front: L R
Частота : 48,0 КГц
Частота кадров : 31,250 кадров/сек (1536 SPF)
Битовая глубина : 16 бит
Метод сжатия : С потерями
Размер потока : 67,3 Мбайт (10%)
Выравнивание : Разделение по промежуткам
Продолжительность промежутка : 40 мс. (1,00 видеокадр)
Время предзагрузки промежутка : 500 мс.
ServiceKind/String : Complete Main

Скриншоты

[fishek.net].t14014.torrent 
Торрент: Зарегистрирован [ 2020-03-31 12:12 ] · 725581B10D6B6714D8604DCB281A782ADE887CA0

Скачать .torrent

Скачать

19 KB

Статус: проверено
Скачан: 0 раз
Размер: 3,6 GB  ·  Тип торрента
terms.php
Профиль [ЛС]
Показать сообщения:    

Текущее время: 08-Авг 05:47

Часовой пояс: UTC ± 0



Вы не можете начинать темы
Вы не можете отвечать на сообщения
Вы не можете редактировать свои сообщения
Вы не можете удалять свои сообщения
Вы не можете голосовать в опросах
Вы не можете прикреплять файлы к сообщениям
Вы можете скачивать файлы