Статистика раздачи
Размер:  2,3 GB   |    Зарегистрирован:  4 месяца 7 дней   |    Скачан:  0 раз
DL-List: Нет

Полного источника не было: Никогда

 
     
 
 

MAGNAT ®

Пол:
Мужской
Стаж:
1 год 4 месяца
Сообщений:
8807

-Зыбучий песок / Quicksand-- -Год выпуска: 2019
Страна: Швеция
Жанр: драма
Продолжительность: ~00:45:00-Перевод: Профессиональный (многоголосый закадровый) NewStudio-Режиссёр: Пер-Олав Соренсен-В ролях: Ханна Арден, Феликс Сандман, Хелена аф Сандеберг, Свен Воллтер, Шанти Рони, Реубен Сальмандер, Самуэль Фрёлер, Мария Сундбом, Анна Бьёрк, Анита Олатунжи-Описание: Массовая стрельба произошла в одной из элитных шведских школ. В этом преступлении обвиняют Майю. На суде все пытаются понять её мотивы и разобраться, кто же она — убийца или жертва?
Качество: WEB-DLRip-AVC
Формат: MKV-Видео: MPEG-4 AVC, 760x400 (1.900), 25.000 fps, ~1000 kbps avg, 0.132 bit/pixel
Аудио: 48 kHz, AC3 Dolby Digital, 2/0 (L,R) ch, ~192 kbps avg
Субтитры: русские (форсированные)-Реклама: нет

MediaInfo

Код:
Complete name : D:\Раздача\Quicksand (2019) S01\Quicksand (2019) S01E01 WEB-DLRip-AVC_ivanes.mkv
Format : Matroska
Format version : Version 2
File size : 387 MiB
Duration : 45 min 26 s
Overall bit rate : 1 190 kb/s
Movie name : Quicksand (2019) S01E01 WEB-DLRip-AVC_ivanes
Encoded date : UTC 2019-06-12 16:42:50
Writing application : mkvmerge v4.4.0 ('Die Wiederkehr') сборка от Jan 3 2011 21:40:45
Writing library : libebml v1.0.0 + libmatroska v1.0.0
Cover : Yes
Attachments : cover.png
Video
ID : 1
Format : AVC
Format/Info : Advanced Video Codec
Format profile : High@L4.1
Format settings, CABAC : Yes
Format settings, RefFrames : 10 frames
Codec ID : V_MPEG4/ISO/AVC
Duration : 45 min 26 s
Bit rate : 1 000 kb/s
Width : 760 pixels
Height : 400 pixels
Display aspect ratio : 1.900
Frame rate mode : Constant
Frame rate : 25.000 FPS
Color space : YUV
Chroma subsampling : 4:2:0
Bit depth : 8 bits
Scan type : Progressive
Bits/(Pixel*Frame) : 0.132
Stream size : 317 MiB (82%)
Title : Rip by ivanes
Writing library : x264 core 157 r2969 d4099dd
Encoding settings : cabac=1 / ref=10 / deblock=1:-3:-3 / analyse=0x3:0x113 / me=umh / subme=8 / psy=1 / psy_rd=1.00:0.00 / mixed_ref=1 / me_range=32 / chroma_me=1 / trellis=2 / 8x8dct=1 / cqm=0 / deadzone=21,11 / fast_pskip=0 / chroma_qp_offset=-2 / threads=12 / lookahead_threads=3 / sliced_threads=0 / nr=0 / decimate=1 / interlaced=0 / bluray_compat=0 / constrained_intra=0 / bframes=10 / b_pyramid=2 / b_adapt=2 / b_bias=0 / direct=1 / weightb=1 / open_gop=0 / weightp=2 / keyint=250 / keyint_min=25 / scenecut=40 / intra_refresh=0 / rc_lookahead=60 / rc=2pass / mbtree=0 / bitrate=1000 / ratetol=1.0 / qcomp=0.60 / qpmin=0 / qpmax=69 / qpstep=4 / cplxblur=20.0 / qblur=0.5 / vbv_maxrate=50000 / vbv_bufsize=62500 / nal_hrd=none / filler=0 / ip_ratio=1.40 / pb_ratio=1.30 / aq=1:1.00
Default : Yes
Forced : No
Statistics Tags Issue : mkvmerge v10.0.0 ('To Drown In You') 64bit 2019-06-12 16:37:15 / mkvmerge v4.4.0 ('Die Wiederkehr') сборка от Jan 3 2011 21:40:45 2019-06-12 16:42:50
FromStats_BitRate : 995050
FromStats_Duration : 00:45:26.360000000
FromStats_FrameCount : 68159
FromStats_StreamSize : 339108171
Audio
ID : 2
Format : AC-3
Format/Info : Audio Coding 3
Format settings, Endianness : Big
Codec ID : A_AC3
Duration : 45 min 26 s
Bit rate mode : Constant
Bit rate : 192 kb/s
Channel(s) : 2 channels
Channel positions : Front: L R
Sampling rate : 48.0 kHz
Frame rate : 31.250 FPS (1536 SPF)
Bit depth : 16 bits
Compression mode : Lossy
Stream size : 62.4 MiB (16%)
Title : NewStudio
Language : Russian
Service kind : Complete Main
Default : Yes
Forced : No
Text
ID : 3
Format : UTF-8
Codec ID : S_TEXT/UTF8
Codec ID/Info : UTF-8 Plain Text
Title : Forced
Language : Russian
Default : Yes
Forced : No

Скриншоты

[fishek.net].t14028.torrent 
Торрент: Зарегистрирован [ 2020-03-31 12:59 ] · 378E9BA0FBFD98F2BB607A50BEB1FCB43E9297CA

Скачать .torrent

Скачать

12 KB

Статус: проверено
Скачан: 0 раз
Размер: 2,3 GB  ·  Тип торрента
terms.php
Профиль [ЛС]
Показать сообщения:    

Текущее время: 08-Авг 06:50

Часовой пояс: UTC ± 0



Вы не можете начинать темы
Вы не можете отвечать на сообщения
Вы не можете редактировать свои сообщения
Вы не можете удалять свои сообщения
Вы не можете голосовать в опросах
Вы не можете прикреплять файлы к сообщениям
Вы можете скачивать файлы