Статистика раздачи
Размер:  14,46 GB   |    Зарегистрирован:  4 месяца 7 дней   |    Скачан:  0 раз
DL-List: Нет

Полного источника не было: Никогда

 
     
 
 

MAGNAT ®

Пол:
Мужской
Стаж:
1 год 4 месяца
Сообщений:
8807

Обман / Bedrag- Год выпуска: 2016
Страна: Дания
Жанр: Триллер, драма, криминал
Продолжительность: 00:58:30-Перевод: Любительский (двухголосый закадровый) - SunshineStudio-Режиссёр: Сёрен Балле, Пер Флю, Янник Йохансен-В ролях: Томас Бо Ларсен, Эсбен Смед Енсен, Николай Ли Каас, Томас Хван Х. Андерсен, Лине Крусе, Каспер Лайснер, Лукас Хансен, Джули Грундтвиг, Хенрик Ноэль Олесен, Клаэс Юнгмарк-Описание: Недалеко от одной из крупнейших ветроэлектростанций Дании найден труп мужчины. Дело об убийстве поручают полицейскому Мадсу Юстесену. Этот человек известен своим загадочным темным прошлым, о котором тот старается не рассказывать коллегам. Детектив сразу же отрицает факт того, что данная смерть является несчастным случаем, считая, что мужчину нарочно убили и подстроили все, будто бы его смерть наступила внезапно. Главный герой стремится выяснить детали этого дела. Ему приходится углубиться в детали жизни погибшего. Вскоре под подозрение падает директор успешной компании «Энергрин».
Качество: HDRip
Формат: AVI
Видео: 704x320, 25.000 fps, XviD, 1500 Kbps, 0.26 bit/pixel
Аудио 1: MP3, 48 KHz, 2 ch, 128 kbps [Русский]
Аудио 2: MP3, 48 KHz, 2 ch, 128 kbps [датский]
Субтитры: Отсутствуют-Реклама: Отсутствует-

MediaInfo

General
Complete name : Downloads\Bedrag\Bedrag.s01e01.avi
Format : AVI
Format/Info : Audio Video Interleave
File size : 741 MiB
Duration : 58mn 30s
Overall bit rate : 1 771 Kbps
Writing application : VirtualDubMod 1.5.10.2 (build 2540/release)
Writing library : VirtualDubMod build 2540/release
Video #0
ID : 0
Format : MPEG-4 Visual
Format profile : Advanced Simple@L5
Format settings, BVOP : 1
Format settings, QPel : No
Format settings, GMC : No warppoints
Format settings, Matrix : Custom
Codec ID : XVID
Codec ID/Hint : XviD
Duration : 58mn 30s
Bit rate : 1 500 Kbps
Width : 704 pixels
Height : 320 pixels
Display aspect ratio : 2.2:1
Frame rate : 25.000 fps
Color space : YUV
Chroma subsampling : 4:2:0
Bit depth : 8 bits
Scan type : Progressive
Compression mode : Lossy
Bits/(Pixel*Frame) : 0.266
Stream size : 628 MiB (85%)
Writing library : XviD 73
Audio #1
ID : 1
Format : MPEG Audio
Format version : Version 1
Format profile : Layer 3
Mode : Joint stereo
Mode extension : MS Stereo
Codec ID : 55
Codec ID/Hint : MP3
Duration : 58mn 30s
Bit rate mode : Constant
Bit rate : 128 Kbps
Channel(s) : 2 channels
Sampling rate : 48.0 KHz
Compression mode : Lossy
Stream size : 53.6 MiB (7%)
Alignment : Split accross interleaves
Interleave, duration : 40 ms (1.00 video frame)
Interleave, preload duration : 500 ms
Audio #2
ID : 2
Format : MPEG Audio
Format version : Version 1
Format profile : Layer 3
Mode : Joint stereo
Mode extension : MS Stereo
Codec ID : 55
Codec ID/Hint : MP3
Duration : 58mn 30s
Bit rate mode : Constant
Bit rate : 128 Kbps
Channel(s) : 2 channels
Sampling rate : 48.0 KHz
Compression mode : Lossy
Stream size : 53.6 MiB (7%)
Alignment : Split accross interleaves
Interleave, duration : 40 ms (1.00 video frame)
Interleave, preload duration : 500 ms

Скриншоты

[fishek.net].t14038.torrent 
Торрент: Зарегистрирован [ 2020-03-31 13:05 ] · D031F191D29085370ED9352890E7AFB14CD2E853

Скачать .torrent

Скачать

74 KB

Статус: проверено
Скачан: 0 раз
Размер: 14,46 GB  ·  Тип торрента
terms.php
Профиль [ЛС]
Показать сообщения:    

Текущее время: 08-Авг 05:27

Часовой пояс: UTC ± 0



Вы не можете начинать темы
Вы не можете отвечать на сообщения
Вы не можете редактировать свои сообщения
Вы не можете удалять свои сообщения
Вы не можете голосовать в опросах
Вы не можете прикреплять файлы к сообщениям
Вы можете скачивать файлы