Статистика раздачи
Размер:  6,43 GB   |    Зарегистрирован:  4 месяца 7 дней   |    Скачан:  0 раз
DL-List: Нет

Полного источника не было: Никогда

 
     
 
 

MAGNAT ®

Пол:
Мужской
Стаж:
1 год 4 месяца
Сообщений:
8807

Капкан | В ловушке | Ófærð | Trapped- Год выпуска: 2015
Страна: Исландия
Жанр: Триллер, драма, криминал
Продолжительность: ~ 00:50:00-Перевод: Любительский (одноголосый закадровый) | Project Web Mania-Режиссёр: Боркур Ситорсон, Оскар Тор Аксельссон, Бальтасар Кормакур-В ролях: Оулавюр Дарри Оулафссон, Ильмюр Кристьяунсдоуттир, Ингвар Эггерт Сигюрдссон, Нина Дёгг Филиппусдоуттир, Балтазар Бреки Балтазарссон, Бьярне Хенриксен, Торстейнн Бахман, Палми Гестссон, Торстейнн Гуннарссон, Ханна Мария Карлсдоттир и др.-Описание: Недалеко от небольшого городка у фьорда находят истерзанное тело мужчины. В это же время на городок обрушивается сильнейшая метель, которая буквально отрезает его от остального мира. В результате чего местной полиции приходится рассчитывать только на свои силы, а немногочисленным местным жителям — волноваться не только из-за разгуливающего вокруг убийцы, но и из-за стихии.-Качество: HDRip
Формат: AVI
Видео: XviD, 720x400, 25,000 кадров/сек, ~1500 Кбит/сек
Аудио Rus: MP3, 48 kHz, 2 ch, 128 Кбит/сек | Project Web Mania
Аудио Isl: MP3, 48 kHz, 2 ch, 128 Кбит/сек
Субтитры: Русские | Станислав Бельков («Скандинавский калейдоскоп»)
Реклама: Отсутствует-

MediaInfo

Общее
Полное имя : E:\Trapped (Season 1) HDRip\Trapped.S01E01.HDRip.RGzsRutracker.[Wentworth_Miller].avi
Формат : AVI
Формат/Информация : Audio Video Interleave
Размер файла : 662 Мбайт
Продолжительность : 52 м. 16 с.
Общий поток : 1770 Кбит/сек
Программа кодирования : VirtualDubMod 1.5.10.3 | www.virtualdub-fr.org || (build 2550/release)
Библиотека кодирования : VirtualDubMod build 2550/release
Видео
Идентификатор : 0
Формат : MPEG-4 Visual
Профиль формата : Advanced Simple@L5
Настройки формата : BVOP2
Параметр BVOP формата : 2
Параметр QPel формата : Нет
Параметр GMC формата : Без точки перехода
Параметр матрицы формата : Default (MPEG)
Идентификатор кодека : XVID
Идентификатор кодека/Подсказка : XviD
Продолжительность : 52 м. 16 с.
Битрейт : 1500 Кбит/сек
Ширина : 720 пикселей
Высота : 400 пикселей
Соотношение сторон : 16:9
Частота кадров : 25,000 кадров/сек
Цветовое пространство : YUV
Субдискретизация насыщенности : 4:2:0
Битовая глубина : 8 бит
Тип развёртки : Прогрессивная
Метод сжатия : С потерями
Бит/(Пиксели*Кадры) : 0.208
Размер потока : 561 Мбайт (85%)
Библиотека кодирования : XviD 61
Аудио #1
Идентификатор : 1
Формат : MPEG Audio
Версия формата : Version 1
Профиль формата : Layer 3
Идентификатор кодека : 55
Идентификатор кодека/Подсказка : MP3
Продолжительность : 52 м. 16 с.
Вид битрейта : Постоянный
Битрейт : 128 Кбит/сек
Каналы : 2 канала
Частота : 48,0 КГц
Частота кадров : 41,667 кадра/сек (1152 SPF)
Метод сжатия : С потерями
Размер потока : 47,9 Мбайт (7%)
Выравнивание : Соединение по промежуткам
Продолжительность промежутка : 40 мс. (1,00 видеокадр)
Время предзагрузки промежутка : 504 мс.
Библиотека кодирования : LAME3.98r
Настройки программы : -m s -V 4 -q 2 -lowpass 17 -b 128
Аудио #2
Идентификатор : 2
Формат : MPEG Audio
Версия формата : Version 1
Профиль формата : Layer 3
Настройки формата : Joint stereo / MS Stereo
Идентификатор кодека : 55
Идентификатор кодека/Подсказка : MP3
Продолжительность : 52 м. 16 с.
Вид битрейта : Постоянный
Битрейт : 128 Кбит/сек
Каналы : 2 канала
Частота : 48,0 КГц
Метод сжатия : С потерями
Размер потока : 47,9 Мбайт (7%)
Выравнивание : Соединение по промежуткам
Продолжительность промежутка : 40 мс. (1,00 видеокадр)
Время предзагрузки промежутка : 504 мс.
-

Скриншоты

[fishek.net].t14039.torrent 
Торрент: Зарегистрирован [ 2020-03-31 13:06 ] · B947C8FDCA3B225DCDFBE7EC71E4789DCF190625

Скачать .torrent

Скачать

34 KB

Статус: проверено
Скачан: 0 раз
Размер: 6,43 GB  ·  Тип торрента
terms.php
Профиль [ЛС]
Показать сообщения:    

Текущее время: 08-Авг 06:09

Часовой пояс: UTC ± 0



Вы не можете начинать темы
Вы не можете отвечать на сообщения
Вы не можете редактировать свои сообщения
Вы не можете удалять свои сообщения
Вы не можете голосовать в опросах
Вы не можете прикреплять файлы к сообщениям
Вы можете скачивать файлы