Статистика раздачи
Размер:  6,18 GB   |    Зарегистрирован:  2 месяца 7 дней   |    Скачан:  0 раз
DL-List: Нет

Полного источника не было: Никогда

 
     
 
 

MAGNAT ®

Пол:
Мужской
Стаж:
1 год 4 месяца
Сообщений:
8807

Вистинг | Wisting- Год выпуска: 2019
Страна: Норвегия
Жанр: Драма, криминал
Продолжительность: ~ 01:00:00-Перевод: Профессиональный (многоголосый закадровый) | Zone Vision Studio по заказу IVI-Режиссёр: Тригве Аллистер Дайсен, Катарина Лаунинг-В ролях: Свен Нордин, Кэрри-Энн Мосс, Теа Грин Лундберг, Мадс Оусдаль, Гард Б. Эйдсвольд, Ларс Берге, Ульрикке Хансен Дёвиген, Ирина Эйдсвольд Тойен, Хайди Голдман, Хьерсти Сандал-Описание: Следователь Уильям Вистинг постоянно берётся за разные сложные и загадочные преступления. Делом чести для него становится поимка американского серийного убийцы, который решает укрыться в норвежской глубинке, городке под названием Ларвик. На помощь Вистингу из США командируют агента ФБР Мэгги Гриффин.-Качество: WEB-DLRip
Формат: AVI
Видео: XviD, 720x304 (2,35:1), 25,000 кадров/сек, 1600 Кбит/сек
Аудио Rus: AC3, 48,0 kHz, 2 ch, 192 Кбит/сек | Zone Vision Studio
Аудио Nor: AC3, 48,0 kHz, 2 ch, 192 Кбит/сек
Субтитры: Отсутствуют
Реклама: Отсутствует-

MediaInfo

Общее
Полное имя : D:\Wisting (Season 1) WEB-DLRip\Wisting.S01E01.WEB-DLRip.RGzsRutracker.[Wentworth_Miller].avi
Формат : AVI
Формат/Информация : Audio Video Interleave
Размер файла : 607 Мбайт
Продолжительность : 42 м. 29 с.
Общий поток : 1 998 Кбит/сек
Программа кодирования : VirtualDubMod 1.5.10.3 | www.virtualdub-fr.org || (build 2550/release)
Библиотека кодирования : VirtualDubMod build 2550/release
Видео
Идентификатор : 0
Формат : MPEG-4 Visual
Профиль формата : Advanced Simple@L5
Настройки формата : BVOP1
Параметр BVOP формата : 1
Параметр QPel формата : Нет
Параметр GMC формата : Без точки перехода
Параметр матрицы формата : Default (MPEG)
Идентификатор кодека : XVID
Идентификатор кодека/Подсказка : XviD
Продолжительность : 42 м. 29 с.
Битрейт : 1 600 Кбит/сек
Ширина : 720 пикселей
Высота : 304 пикселя
Соотношение сторон : 2,35:1
Частота кадров : 25,000 кадров/сек
Цветовое пространство : YUV
Субдискретизация насыщенности : 4:2:0
Битовая глубина : 8 бит
Тип развёртки : Прогрессивная
Метод сжатия : С потерями
Бит/(Пиксели*Кадры) : 0.292
Размер потока : 486 Мбайт (80%)
Библиотека кодирования : XviD 67
Аудио #1
Идентификатор : 1
Формат : AC-3
Формат/Информация : Audio Coding 3
Коммерческое название : Dolby Digital
Идентификатор кодека : 2000
Продолжительность : 42 м. 29 с.
Вид битрейта : Постоянный
Битрейт : 192 Кбит/сек
Каналы : 2 канала
Channel layout : L R
Частота : 48,0 КГц
Частота кадров : 31,250 кадров/сек (1536 SPF)
Метод сжатия : С потерями
Размер потока : 58,4 Мбайт (10%)
Выравнивание : Разделение по промежуткам
Продолжительность промежутка : 40 мс. (1,00 видеокадр)
Время предзагрузки промежутка : 500 мс.
Service kind : Complete Main
Аудио #2
Идентификатор : 2
Формат : AC-3
Формат/Информация : Audio Coding 3
Коммерческое название : Dolby Digital
Идентификатор кодека : 2000
Продолжительность : 42 м. 29 с.
Вид битрейта : Постоянный
Битрейт : 192 Кбит/сек
Каналы : 2 канала
Channel layout : L R
Частота : 48,0 КГц
Частота кадров : 31,250 кадров/сек (1536 SPF)
Метод сжатия : С потерями
Размер потока : 58,4 Мбайт (10%)
Выравнивание : Разделение по промежуткам
Продолжительность промежутка : 40 мс. (1,00 видеокадр)
Время предзагрузки промежутка : 500 мс.
Service kind : Complete Main
-

Скриншоты

-
[fishek.net].t19513.torrent 
Торрент: Зарегистрирован [ 2020-05-31 13:17 ] · 83D732CA1D3522155BEE072087B11AEF2D325CD6

Скачать .torrent

Скачать

32 KB

Статус: проверено
Скачан: 0 раз
Размер: 6,18 GB  ·  Тип торрента
terms.php
Профиль [ЛС]
Показать сообщения:    

Текущее время: 08-Авг 07:12

Часовой пояс: UTC ± 0



Вы не можете начинать темы
Вы не можете отвечать на сообщения
Вы не можете редактировать свои сообщения
Вы не можете удалять свои сообщения
Вы не можете голосовать в опросах
Вы не можете прикреплять файлы к сообщениям
Вы можете скачивать файлы