Статистика раздачи
Размер:  2,95 GB   |    Зарегистрирован:  4 месяца 7 дней   |    Скачан:  0 раз
DL-List: Нет

Полного источника не было: Никогда

 
     
 
 

MAGNAT ®

Пол:
Мужской
Стаж:
1 год 4 месяца
Сообщений:
8807

Лето в теплой компании / Sommaren med slakten
Год выпуска: 2017
Страна: Швеция
Жанр: комедия
Продолжительность: 00:20:00
Перевод: Любительский (многоголосый закадровый) Green Ray
Режиссёр: Микаэль Сайрен
В ролях: Кристофер Вагелин, Анки Лиден, Ракель Вармландер, Кристер Хенрикссон, Питер Магнуссон, Кристин Мелцер, Йонас Карлссон
Описание: Семейная комедия о дачном отпуске шведской семьи.
Качество: WEBRip-AVC
Формат: AVI
Видео: AVC, 720x400 (16:9), 29.970 fps, 1 451 Kbps
Аудио: MPEG Audio, 44.1 KHz, 2 channels, 320 Kbps
Субтитры: нет
Реклама:
есть

MediaInfo

Format : AVI
Format/Info : Audio Video Interleave
File size : 279 MiB
Duration : 21mn 49s
Overall bit rate : 1 785 Kbps
Writing application : Lavf58.12.100
Video
ID : 0
Format : AVC
Format/Info : Advanced Video Codec
Format profile : Main@L3
Format settings : CABAC / 2 Ref Frames
Format settings, CABAC : Yes
Format settings, ReFrames : 2 frames
Format settings, GOP : M=1, N=25
Codec ID : H264
Duration : 21mn 49s
Bit rate : 1 451 Kbps
Width : 720 pixels
Height : 400 pixels
Display aspect ratio : 16:9
Frame rate mode : Variable
Frame rate : 29.970 (30000/1001) fps
Color space : YUV
Chroma subsampling : 4:2:0
Bit depth : 8 bits
Scan type : Progressive
Bits/(Pixel*Frame) : 0.168
Stream size : 227 MiB (81%)
Audio
ID : 1
Format : MPEG Audio
Format version : Version 1
Format profile : Layer 3
Format settings : Joint stereo / MS Stereo
Codec ID : 55
Codec ID/Hint : MP3
Duration : 21mn 49s
Bit rate mode : Constant
Bit rate : 320 Kbps
Channel(s) : 2 channels
Sampling rate : 44.1 KHz
Compression mode : Lossy
Stream size : 50.0 MiB (18%)
Alignment : Aligned on interleaves
Interleave, duration : 26 ms (0.78 video frame)
Interleave, preload duration : 26 ms
Writing library : LAME3.99.5

Скриншоты

[fishek.net].t14030.torrent 
Торрент: Зарегистрирован [ 2020-03-31 13:00 ] · D59FBB6E9C33E23B9733FA6D60BADC49DB8C900A

Скачать .torrent

Скачать

31 KB

Статус: проверено
Скачан: 0 раз
Размер: 2,95 GB  ·  Тип торрента
terms.php
Профиль [ЛС]
Показать сообщения:    

Текущее время: 08-Авг 06:49

Часовой пояс: UTC ± 0



Вы не можете начинать темы
Вы не можете отвечать на сообщения
Вы не можете редактировать свои сообщения
Вы не можете удалять свои сообщения
Вы не можете голосовать в опросах
Вы не можете прикреплять файлы к сообщениям
Вы можете скачивать файлы