Статистика раздачи
Размер:  1,15 GB   |    Зарегистрирован:  3 месяца 27 дней   |    Скачан:  0 раз
DL-List: Нет

Полного источника не было: Никогда

 
     
 
 

MAGNAT ®

Пол:
Мужской
Стаж:
1 год 4 месяца
Сообщений:
8807

The Many Faces Of Elton John



• Жанр: Pop Rock
• Носитель: CD
• Год издания: 2019
• Издатель: Music Brokers
• Номер по каталогу: MBB7287
• Страна: UK
• Аудиокодек: FLAC (*.flac)
• Тип рипа: image+.cue
• Продолжительность: 02:54:12
• Источник: Boris
• Наличие сканов: да

• CD1 - time: 00:51:22


1. Collective Soul & Elton John - Perfect Day (3:47)
2. Argosy feat. Elton John & Roger Hodgson from Supertramp - Mr. Boyd (2:39)
3. Radio Heart feat. Elton John & Gary Numan - Strange Thing (4:26)
4. The Hollies feat. Elton John - He Ain't Heavy, He's My Brother (4:19)
5. Birds of A Feather feat. Elton John - Take Me To The Pilot (3:15)
6. Leon Russell - A Song For You (4:17)
7. Spencer Davis Group feat. Nigel Olsson & Dee Murray from Elton John's Band - Let The Sunshine In (2:06)
8. Blue (Produced by Elton John) - Gonna Capture Your Heart (3:17)
9. Birds of A Feather feat. Elton John - Border Song (3:28)
10. The Hollies feat. Elton John - Perfect Lady Housewife (4:36)
11. Leon Russell - This Masquerade (3:28)
12. Francis Trevor & Tracey Hewat (from The "Aida" Musical) - Written In The Stars (4:17)
13. Spencer Davis Group feat. Nigel Olsson & Dee Murray from Elton John's Band - Short Change (3:56)
14. Liberace - Chopsticks (3:26)
-

• Содержание индексной карты •

REM DISCID C90C0A0E
REM COMMENT "ExactAudioCopy v1.1"
PERFORMER "Various Artists"
TITLE "CD1 - The Many Faces Of Elton John"
FILE "Various Artists - CD1 - The Many Faces Of Elton John.flac" WAVE
TRACK 01 AUDIO
TITLE "Perfect Day"
PERFORMER "Collective Soul & Elton John"
INDEX 01 00:00:00
TRACK 02 AUDIO
TITLE "Mr. Boyd"
PERFORMER "Argosy Feat. Elton John & Roger Hogdson from Supertramp"
INDEX 01 03:47:00
TRACK 03 AUDIO
TITLE "Strange Thing"
PERFORMER "Radio Heart Feat. Elton John & Gary Numan"
INDEX 01 06:26:19
TRACK 04 AUDIO
TITLE "He Ain't Heavy, He's My Brother"
PERFORMER "The Hollies Feat. Elton John"
INDEX 01 10:53:01
TRACK 05 AUDIO
TITLE "Take Me To The Pilot"
PERFORMER "Birds Of A Feather Feat. Elton John"
INDEX 01 15:12:58
TRACK 06 AUDIO
TITLE "A Song For You"
PERFORMER "Leon Russell"
INDEX 01 18:28:21
TRACK 07 AUDIO
TITLE "Let The Sunshine In"
PERFORMER "Spencer Davis Group Feat. Nigel Olsson & Dee Murray from Elton John's Band"
INDEX 01 22:45:59
TRACK 08 AUDIO
TITLE "Gonna Capture Your Heart"
PERFORMER "Blue (Produced by Elton John)"
INDEX 01 24:51:59
TRACK 09 AUDIO
TITLE "Border Song"
PERFORMER "Birds Of A Feather Feat. Elton John"
INDEX 01 28:09:41
TRACK 10 AUDIO
TITLE "Perfect Lady Housewife"
PERFORMER "The Hollies Feat. Elton John"
INDEX 01 31:38:04
TRACK 11 AUDIO
TITLE "This Masquerade"
PERFORMER "Leon Russell"
INDEX 01 36:14:23
TRACK 12 AUDIO
TITLE "Written In The Stars"
PERFORMER "Francis Trevor & Tracey Hewat (From The 'Aida' Musical)"
INDEX 01 39:43:05
TRACK 13 AUDIO
TITLE "Short Change"
PERFORMER "Spencer Davis Group Feat. Nigel Olsson & Dee Murray from Elton John's Band"
INDEX 01 44:00:05
TRACK 14 AUDIO
TITLE "Chopsticks"
PERFORMER "Liberace"
INDEX 01 47:56:05
-

• Лог создания рипа •

Exact Audio Copy V1.1 from 23. June 2015
EAC extraction logfile from 15. February 2020, 21:59
Various Artists / CD1 - The Many Faces Of Elton John
Used drive : MATSHITADVD+-RW SW830 Adapter: 1 ID: 0
Read mode : Secure
Utilize accurate stream : Yes
Defeat audio cache : Yes
Make use of C2 pointers : No
Read offset correction : 6
Overread into Lead-In and Lead-Out : No
Fill up missing offset samples with silence : Yes
Delete leading and trailing silent blocks : No
Null samples used in CRC calculations : Yes
Used interface : Native Win32 interface for Win NT & 2000
Used output format : User Defined Encoder
Selected bitrate : 768 kBit/s
Quality : High
Add ID3 tag : No
Command line compressor : C:\Program Files (x86)\Exact Audio Copy\FLAC\FLAC.EXE
Additional command line options : -6 -V -T "ARTIST=%artist%" -T "TITLE=%title%" -T "ALBUM=%albumtitle%" -T "DATE=%year%" -T "TRACKNUMBER=%tracknr%" -T "GENRE=%genre%" -T "COMMENT=%comment%" -T "BAND=%albuminterpret%" -T "ALBUMARTIST=%albuminterpret%" -T "COMPOSER=%composer%" %haslyrics%--tag-from-file=LYRICS="%lyricsfile%"%haslyrics% -T "DISCNUMBER=%cdnumber%" -T "TOTALDISCS=%totalcds%" -T "TOTALTRACKS=%numtracks%" %hascover%--picture="%coverfile%"%hascover% %source% -o %dest%
TOC of the extracted CD
Track | Start | Length | Start sector | End sector
---------------------------------------------------------
1 | 0:00.00 | 3:47.00 | 0 | 17024
2 | 3:47.00 | 2:39.19 | 17025 | 28968
3 | 6:26.19 | 4:26.57 | 28969 | 48975
4 | 10:53.01 | 4:19.57 | 48976 | 68457
5 | 15:12.58 | 3:15.38 | 68458 | 83120
6 | 18:28.21 | 4:17.38 | 83121 | 102433
7 | 22:45.59 | 2:06.00 | 102434 | 111883
8 | 24:51.59 | 3:17.57 | 111884 | 126715
9 | 28:09.41 | 3:28.38 | 126716 | 142353
10 | 31:38.04 | 4:36.19 | 142354 | 163072
11 | 36:14.23 | 3:28.57 | 163073 | 178729
12 | 39:43.05 | 4:17.00 | 178730 | 198004
13 | 44:00.05 | 3:56.00 | 198005 | 215704
14 | 47:56.05 | 3:26.38 | 215705 | 231192
Range status and errors
Selected range
Filename C:\Users\Boris\Desktop\lossless-galaxy.ru\FacesElto\CD1\Various Artists - CD1 - The Many Faces Of Elton John.wav
Peak level 96.2 %
Extraction speed 3.1 X
Range quality 100.0 %
Test CRC 04AC93D9
Copy CRC 04AC93D9
Copy OK
No errors occurred
AccurateRip summary
Track 1 accurately ripped (confidence 4) [5D12FD1F] (AR v2)
Track 2 accurately ripped (confidence 4) [0F4EB467] (AR v2)
Track 3 accurately ripped (confidence 4) [37DC84F0] (AR v2)
Track 4 accurately ripped (confidence 4) [867C040B] (AR v2)
Track 5 accurately ripped (confidence 4) [0766A41E] (AR v2)
Track 6 accurately ripped (confidence 4) [8BEAC044] (AR v2)
Track 7 accurately ripped (confidence 4) [C7A78E75] (AR v2)
Track 8 accurately ripped (confidence 4) [3F6C3C61] (AR v2)
Track 9 accurately ripped (confidence 4) [1491EB58] (AR v2)
Track 10 accurately ripped (confidence 4) [A6D423F5] (AR v2)
Track 11 accurately ripped (confidence 4) [721F732C] (AR v2)
Track 12 accurately ripped (confidence 4) [D40262B9] (AR v2)
Track 13 accurately ripped (confidence 4) [C9D09FF0] (AR v2)
Track 14 accurately ripped (confidence 4) [CF6A08AC] (AR v2)
All tracks accurately ripped
End of status report
---- CUETools DB Plugin V2.1.6
[CTDB TOCID: I5bOWPxBzlMxOql5aL34XXUm.Hc-] found
Submit result: I5bOWPxBzlMxOql5aL34XXUm.Hc- has been confirmed
Track | CTDB Status
1 | (18/18) Accurately ripped
2 | (18/18) Accurately ripped
3 | (18/18) Accurately ripped
4 | (18/18) Accurately ripped
5 | (18/18) Accurately ripped
6 | (18/18) Accurately ripped
7 | (18/18) Accurately ripped
8 | (18/18) Accurately ripped
9 | (18/18) Accurately ripped
10 | (18/18) Accurately ripped
11 | (18/18) Accurately ripped
12 | (18/18) Accurately ripped
13 | (18/18) Accurately ripped
14 | (18/18) Accurately ripped
==== Log checksum 7200112A3946FCED5DC1715F3D146DE90AA72D100CC105446B8EACFA06F24BFD ====
-
--

• CD2 - Elton John Live - time: 01:12:04


1. Don't Let The Sun Go Down On Me (5:35)
2. I Guess That's Why They Call It The Blues (4:25)
3. I'm Still Standing (3:04)
4. Tiny Dancer (6:20)
5. Daniel (3:49)
6. Philadelphia Freedom (6:07)
7. Sad Songs (12:28)
8. Sorry Seems To Be The Hardest Word (3:57)
9. The Last Song (3:21)
10. Sacrifice (5:18)
11. The One (5:48)
12. Song For Guy/Your Song (9:25)
13. The Show Must Go On (4:11)
-

• Содержание индексной карты •

REM DISCID BA11530D
REM COMMENT "ExactAudioCopy v1.1"
PERFORMER "Elton John"
TITLE "CD2 - Elton John Live"
FILE "Elton John - CD2 - Elton John Live.flac" WAVE
TRACK 01 AUDIO
TITLE "Don't Let The Sun Go Down On Me"
PERFORMER "Elton John"
INDEX 01 00:00:00
TRACK 02 AUDIO
TITLE "I Guess That's Why They Call It The Blues"
PERFORMER "Elton John"
INDEX 01 05:35:37
TRACK 03 AUDIO
TITLE "I'm Still Standing"
PERFORMER "Elton John"
INDEX 01 10:00:55
TRACK 04 AUDIO
TITLE "Tiny Dancer"
PERFORMER "Elton John"
INDEX 01 13:05:54
TRACK 05 AUDIO
TITLE "Daniel"
PERFORMER "Elton John"
INDEX 01 19:25:72
TRACK 06 AUDIO
TITLE "Philadelphia Freedom"
PERFORMER "Elton John"
INDEX 00 21:24:49
INDEX 01 23:15:34
TRACK 07 AUDIO
TITLE "Sad Songs"
PERFORMER "Elton John"
INDEX 01 29:22:71
TRACK 08 AUDIO
TITLE "Sorry Seems To Be The Hardest Word"
PERFORMER "Elton John"
INDEX 01 41:51:33
TRACK 09 AUDIO
TITLE "The Last Song"
PERFORMER "Elton John"
INDEX 01 45:49:32
TRACK 10 AUDIO
TITLE "Sacrifice"
PERFORMER "Elton John"
INDEX 01 49:11:31
TRACK 11 AUDIO
TITLE "The One"
PERFORMER "Elton John"
INDEX 01 54:29:68
TRACK 12 AUDIO
TITLE "Song For Guy/Your Song"
PERFORMER "Elton John"
INDEX 01 60:18:30
TRACK 13 AUDIO
TITLE "The Show Must Go On"
PERFORMER "Elton John"
INDEX 01 69:44:11
-

• Лог создания рипа •

Exact Audio Copy V1.1 from 23. June 2015
EAC extraction logfile from 15. February 2020, 23:05
Elton John / CD2 - Elton John Live
Used drive : MATSHITADVD+-RW SW830 Adapter: 1 ID: 0
Read mode : Secure
Utilize accurate stream : Yes
Defeat audio cache : Yes
Make use of C2 pointers : No
Read offset correction : 6
Overread into Lead-In and Lead-Out : No
Fill up missing offset samples with silence : Yes
Delete leading and trailing silent blocks : No
Null samples used in CRC calculations : Yes
Used interface : Native Win32 interface for Win NT & 2000
Used output format : User Defined Encoder
Selected bitrate : 768 kBit/s
Quality : High
Add ID3 tag : No
Command line compressor : C:\Program Files (x86)\Exact Audio Copy\FLAC\FLAC.EXE
Additional command line options : -6 -V -T "ARTIST=%artist%" -T "TITLE=%title%" -T "ALBUM=%albumtitle%" -T "DATE=%year%" -T "TRACKNUMBER=%tracknr%" -T "GENRE=%genre%" -T "COMMENT=%comment%" -T "BAND=%albuminterpret%" -T "ALBUMARTIST=%albuminterpret%" -T "COMPOSER=%composer%" %haslyrics%--tag-from-file=LYRICS="%lyricsfile%"%haslyrics% -T "DISCNUMBER=%cdnumber%" -T "TOTALDISCS=%totalcds%" -T "TOTALTRACKS=%numtracks%" %hascover%--picture="%coverfile%"%hascover% %source% -o %dest%
TOC of the extracted CD
Track | Start | Length | Start sector | End sector
---------------------------------------------------------
1 | 0:00.00 | 5:35.37 | 0 | 25161
2 | 5:35.37 | 4:25.18 | 25162 | 45054
3 | 10:00.55 | 3:04.74 | 45055 | 58928
4 | 13:05.54 | 6:20.18 | 58929 | 87446
5 | 19:25.72 | 3:49.37 | 87447 | 104658
6 | 23:15.34 | 6:07.37 | 104659 | 132220
7 | 29:22.71 | 12:28.37 | 132221 | 188357
8 | 41:51.33 | 3:57.74 | 188358 | 206206
9 | 45:49.32 | 3:21.74 | 206207 | 221355
10 | 49:11.31 | 5:18.37 | 221356 | 245242
11 | 54:29.68 | 5:48.37 | 245243 | 271379
12 | 60:18.30 | 9:25.56 | 271380 | 313810
13 | 69:44.11 | 4:11.04 | 313811 | 332639
Range status and errors
Selected range
Filename C:\Users\Boris\Desktop\lossless-galaxy.ru\FacesElto\CD2\Elton John - CD2 - Elton John Live.wav
Peak level 98.4 %
Extraction speed 8.3 X
Range quality 99.9 %
Test CRC 0C54CB99
Copy CRC 0C54CB99
Copy OK
No errors occurred
AccurateRip summary
Track 1 accurately ripped (confidence 2) [3062AC1F] (AR v2)
Track 2 accurately ripped (confidence 2) [96C3687D] (AR v2)
Track 3 accurately ripped (confidence 2) [EAA73626] (AR v2)
Track 4 accurately ripped (confidence 2) [CE9D35D7] (AR v2)
Track 5 accurately ripped (confidence 2) [93BEECAD] (AR v2)
Track 6 accurately ripped (confidence 2) [A761F589] (AR v2)
Track 7 accurately ripped (confidence 2) [5FD0AD60] (AR v2)
Track 8 accurately ripped (confidence 2) [4FEC263E] (AR v2)
Track 9 accurately ripped (confidence 2) [51A61B59] (AR v2)
Track 10 accurately ripped (confidence 2) [B96A21A1] (AR v2)
Track 11 accurately ripped (confidence 2) [5C7AA95F] (AR v2)
Track 12 accurately ripped (confidence 2) [9E4645E6] (AR v2)
Track 13 accurately ripped (confidence 2) [309F9F3E] (AR v2)
All tracks accurately ripped
End of status report
---- CUETools DB Plugin V2.1.6
[CTDB TOCID: 6MYu5qFLEqYj9dVD4qy2rl6pmbA-] found
Submit result: 6MYu5qFLEqYj9dVD4qy2rl6pmbA- has been confirmed
Track | CTDB Status
1 | (14/14) Accurately ripped
2 | (14/14) Accurately ripped
3 | (14/14) Accurately ripped
4 | (14/14) Accurately ripped
5 | (14/14) Accurately ripped
6 | (14/14) Accurately ripped
7 | (14/14) Accurately ripped
8 | (14/14) Accurately ripped
9 | (14/14) Accurately ripped
10 | (14/14) Accurately ripped
11 | (14/14) Accurately ripped
12 | (14/14) Accurately ripped
13 | (14/14) Accurately ripped
==== Log checksum 1CD9D76C0760EEEB38CCBEE0E7F26B53F2619CD9DC0209FA28FAF90BEF93A10C ====
-
--

• CD3 - time: 00:50:45


1. Heaven 17 - Rocket Man (4:35)
2. Urban Love & Dew - Tiny Dancer (Ronan Remix) (5:03)
3. Brazil XXI - Sacrifice (4:41)
4. Karen Souza - Don't Let The Sun Go Down On Me (3:57)
5. Style Project - Are You Ready For Love (3:39)
6. The Cooltrane Quartet - Your Song (4:15)
7. Tracey Hewat - Candle In The Wind (3:45)
8. Bristol Love - Nikita (4:07)
9. Morgan, G & Machines - Don't Go Breaking My Heart (4:52)
10. Anakelly - Goodbye Yellow Brick Road (3:42)
11. Ivette Moraes - Sorry Seems To Be The Hardest Word (3:52)
12. Trippynova - Bennie & The Jets (4:12)
-

• Содержание индексной карты •

REM DISCID 9D0BE50C
REM COMMENT "ExactAudioCopy v1.1"
PERFORMER "Various Artists"
TITLE "CD3 - The Songs"
FILE "Various Artists - CD3 - The Songs.flac" WAVE
TRACK 01 AUDIO
TITLE "Rocket Man"
PERFORMER "Heaven 17"
INDEX 01 00:00:00
TRACK 02 AUDIO
TITLE "Tiny Dancer (Ronan Remix)"
PERFORMER "Urban Love & Dew"
INDEX 01 04:35:38
TRACK 03 AUDIO
TITLE "Sacrifice"
PERFORMER "Brazil XXI"
INDEX 01 09:38:38
TRACK 04 AUDIO
TITLE "Don't Let The Sun Go Down On Me"
PERFORMER "Karen Souza"
INDEX 01 14:20:20
TRACK 05 AUDIO
TITLE "Are You Ready For Love"
PERFORMER "Style Project"
INDEX 01 18:18:02
TRACK 06 AUDIO
TITLE "Your Song"
PERFORMER "The Cooltrane Quartet"
INDEX 01 21:57:59
TRACK 07 AUDIO
TITLE "Candle In The Wind"
PERFORMER "Tracey Hewat"
INDEX 01 26:13:22
TRACK 08 AUDIO
TITLE "Nikita"
PERFORMER "Bristol Love"
INDEX 01 29:58:22
TRACK 09 AUDIO
TITLE "Don't Go Breaking My Heart"
PERFORMER "Morgan, G & Machines"
INDEX 01 34:05:41
TRACK 10 AUDIO
TITLE "Goodbye Yellow Brick Road"
PERFORMER "Anakelly"
INDEX 01 38:57:60
TRACK 11 AUDIO
TITLE "Sorry Seems To Be The Hardest Word"
PERFORMER "Ivette Moraes"
INDEX 01 42:40:42
TRACK 12 AUDIO
TITLE "Bennie & The Jets"
PERFORMER "Trippynova"
INDEX 01 46:32:61
-

• Лог создания рипа •

Exact Audio Copy V1.1 from 23. June 2015
EAC extraction logfile from 15. February 2020, 23:55
Various Artists / CD3 - The Songs
Used drive : MATSHITADVD+-RW SW830 Adapter: 1 ID: 0
Read mode : Secure
Utilize accurate stream : Yes
Defeat audio cache : Yes
Make use of C2 pointers : No
Read offset correction : 6
Overread into Lead-In and Lead-Out : No
Fill up missing offset samples with silence : Yes
Delete leading and trailing silent blocks : No
Null samples used in CRC calculations : Yes
Used interface : Native Win32 interface for Win NT & 2000
Used output format : User Defined Encoder
Selected bitrate : 768 kBit/s
Quality : High
Add ID3 tag : No
Command line compressor : C:\Program Files (x86)\Exact Audio Copy\FLAC\FLAC.EXE
Additional command line options : -6 -V -T "ARTIST=%artist%" -T "TITLE=%title%" -T "ALBUM=%albumtitle%" -T "DATE=%year%" -T "TRACKNUMBER=%tracknr%" -T "GENRE=%genre%" -T "COMMENT=%comment%" -T "BAND=%albuminterpret%" -T "ALBUMARTIST=%albuminterpret%" -T "COMPOSER=%composer%" %haslyrics%--tag-from-file=LYRICS="%lyricsfile%"%haslyrics% -T "DISCNUMBER=%cdnumber%" -T "TOTALDISCS=%totalcds%" -T "TOTALTRACKS=%numtracks%" %hascover%--picture="%coverfile%"%hascover% %source% -o %dest%
TOC of the extracted CD
Track | Start | Length | Start sector | End sector
---------------------------------------------------------
1 | 0:00.00 | 4:35.38 | 0 | 20662
2 | 4:35.38 | 5:03.00 | 20663 | 43387
3 | 9:38.38 | 4:41.57 | 43388 | 64519
4 | 14:20.20 | 3:57.57 | 64520 | 82351
5 | 18:18.02 | 3:39.57 | 82352 | 98833
6 | 21:57.59 | 4:15.38 | 98834 | 117996
7 | 26:13.22 | 3:45.00 | 117997 | 134871
8 | 29:58.22 | 4:07.19 | 134872 | 153415
9 | 34:05.41 | 4:52.19 | 153416 | 175334
10 | 38:57.60 | 3:42.57 | 175335 | 192041
11 | 42:40.42 | 3:52.19 | 192042 | 209460
12 | 46:32.61 | 4:12.19 | 209461 | 228379
Range status and errors
Selected range
Filename C:\Users\Boris\Desktop\lossless-galaxy.ru\FacesElto\CD3\Various Artists - CD3 - The Songs.wav
Peak level 97.8 %
Extraction speed 3.0 X
Range quality 100.0 %
Test CRC 74665F24
Copy CRC 74665F24
Copy OK
No errors occurred
AccurateRip summary
Track 1 accurately ripped (confidence 3) [61A84667] (AR v2)
Track 2 accurately ripped (confidence 3) [9598AEAD] (AR v2)
Track 3 accurately ripped (confidence 3) [45C17328] (AR v2)
Track 4 accurately ripped (confidence 3) [8D18DF17] (AR v2)
Track 5 accurately ripped (confidence 3) [BE8C845D] (AR v2)
Track 6 accurately ripped (confidence 3) [A7D65B21] (AR v2)
Track 7 accurately ripped (confidence 3) [715E3E4F] (AR v2)
Track 8 accurately ripped (confidence 3) [8EEDB62E] (AR v2)
Track 9 accurately ripped (confidence 3) [13CF6D8F] (AR v2)
Track 10 accurately ripped (confidence 3) [609208B6] (AR v2)
Track 11 accurately ripped (confidence 3) [18A2C2D0] (AR v2)
Track 12 accurately ripped (confidence 3) [64F01653] (AR v2)
All tracks accurately ripped
End of status report
---- CUETools DB Plugin V2.1.6
[CTDB TOCID: VsN4bFjko7IxGLP1vEu7coLUYeA-] found
Submit result: VsN4bFjko7IxGLP1vEu7coLUYeA- has been confirmed
Track | CTDB Status
1 | (16/16) Accurately ripped
2 | (16/16) Accurately ripped
3 | (16/16) Accurately ripped
4 | (16/16) Accurately ripped
5 | (16/16) Accurately ripped
6 | (16/16) Accurately ripped
7 | (16/16) Accurately ripped
8 | (16/16) Accurately ripped
9 | (16/16) Accurately ripped
10 | (16/16) Accurately ripped
11 | (16/16) Accurately ripped
12 | (16/16) Accurately ripped
==== Log checksum A4BAF42FAE9008EF18273181D77D9E295B803CB6B84FB1F8F48E7BCBA7ECF4C6 ====
-
[fishek.net].t15681.torrent 
Торрент: Зарегистрирован [ 2020-04-10 16:48 ] · 0C5C74DFFB312E7B6895873D30930489357C3FFB

Скачать .torrent

Скачать

13 KB

Статус: проверено
Скачан: 0 раз
Размер: 1,15 GB  ·  Тип торрента
terms.php
Профиль [ЛС]
Показать сообщения:    

Текущее время: 08-Авг 06:51

Часовой пояс: UTC ± 0



Вы не можете начинать темы
Вы не можете отвечать на сообщения
Вы не можете редактировать свои сообщения
Вы не можете удалять свои сообщения
Вы не можете голосовать в опросах
Вы не можете прикреплять файлы к сообщениям
Вы можете скачивать файлы