Статистика раздачи
Размер:  288 MB   |    Зарегистрирован:  3 месяца 27 дней   |    Скачан:  0 раз
DL-List: Нет

Полного источника не было: Никогда

 
     
 
 

MAGNAT ®

Пол:
Мужской
Стаж:
1 год 4 месяца
Сообщений:
8807

Solothus - Realm of Ash and Blood- Жанр: Death/Doom Metal
Год издания: 2020-03-27
Издатель-лейбл: 20 Buck Spin
Страна исполнителя: Finland
Аудиокодек: FLAC (*.flac)
Тип рипа: tracks
Битрейт аудио: lossless
Продолжительность: 00:42:43
Источник: интернет
Наличие сканов: нет

Треклист:
01. Father of Sickness (5:39)
02. The Watcher (4:58)
03. The Gallow's Promise (8:57)
04. Last Breath (2:17)
05. Below Black Waters (5:43)
06. Chasm of Shattered Bones (5:06)
07. A Rain of Ash (10:03)

auCDtect

CUE Corrector v. 8.3.6 / b. 968 (Mar. 14, 2020)
————————————————————————————————————————————————————————————————————————
Solothus / Realm of Ash and Blood
Folder: Solothus - 2020 - Realm of Ash and Blood [FLAC]
Audio files:
01 Father of Sickness.flac [05:38.613; FLAC • 961 kbps • 16 bit \ 44100 Hz • stereo; 38,80 MB (40 684 628 B)]
02 The Watcher.flac [04:58.373; FLAC • 1013 kbps • 16 bit \ 44100 Hz • stereo; 36,03 MB (37 782 836 B)]
03 The Gallow's Promise.flac [08:57.013; FLAC • 958 kbps • 16 bit \ 44100 Hz • stereo; 61,38 MB (64 356 604 B)]
04 Last Breath.flac [02:16.707; FLAC • 614 kbps • 16 bit \ 44100 Hz • stereo; 10,01 MB (10 499 104 B)]
05 Below Black Waters.flac [05:42.573; FLAC • 953 kbps • 16 bit \ 44100 Hz • stereo; 38,96 MB (40 850 759 B)]
06 Chasm of Shattered Bones.flac [05:05.973; FLAC • 971 kbps • 16 bit \ 44100 Hz • stereo; 35,42 MB (37 142 333 B)]
07 A Rain of Ash.flac [10:03.013; FLAC • 936 kbps • 16 bit \ 44100 Hz • stereo; 67,34 MB (70 613 427 B)]
Accuracy: -m3
File 01 Father of Sickness - 100% CDDA [05:38:46]
File 02 The Watcher - 100% CDDA [04:58:28]
File 03 The Gallow's Promise - 100% CDDA [08:57:01]
File 04 Last Breath - 100% CDDA [02:16:53]
File 05 Below Black Waters - 100% CDDA [05:42:43]
File 06 Chasm of Shattered Bones - 100% CDDA [05:05:73]
File 07 A Rain of Ash - 100% CDDA [10:03:01]
————— Summary: —————
These tracks looks like CDDA with probability 100%.
————————————————————————————————————————————————————————————————————————
ANALYZER:
auCDtect: CD records authenticity detector, version 0.8.2
Copyright (c) 2004 Oleg Berngardt. All rights reserved.
Copyright (c) 2004 Alexander Djourik. All rights reserved.
Time elapsed: 30.6 s
Log created at March 26, 2020 20:13:18
=== 65819ECA4D069A47873EC3D31AE10637D5B0AE71C58513CBF6C65676CDB74DF1 ===

CUETools

[CUETools log; Date: 26.03.2020 20:13:06; Version: 2.1.6]
Padded some input files to a frame boundary.
[CTDB TOCID: R_cmKYsgJNILxtpUFKI4Zdcaqhg-] disk not present in database.
[AccurateRip ID: 000b06c9-0042577e-520a0207] disk not present in database.
Track Peak [ CRC32 ] [W/O NULL]
-- 100,0 [B48E8A6B] [36D3526E]
01 100,0 [4E716E5B] [5457A077]
02 100,0 [FDA0CA45] [4F89D51B]
03 100,0 [16B512E9] [C9CB23DC]
04 74,4 [B5BDFD27] [957C0952]
05 100,0 [89A232EA] [C5175164]
06 100,0 [9391430F] [65A645CA]
07 100,0 [AFAE214A] [2EDB3A1A]

DR

foobar2000 1.5.1 / Замер динамического диапазона (DR) 1.1.1
Дата отчёта: 2020-03-26 20:11:58
--------------------------------------------------------------------------------
Анализ: Solothus / Realm of Ash and Blood
--------------------------------------------------------------------------------
DR Пики RMS Продолжительность трека
--------------------------------------------------------------------------------
DR9 0.00 дБ -10.37 дБ 5:39 01-Father of Sickness
DR10 0.00 дБ -10.40 дБ 4:58 02-The Watcher
DR9 0.00 дБ -10.06 дБ 8:57 03-The Gallow's Promise
DR10 -2.56 дБ -15.89 дБ 2:17 04-Last Breath
DR10 0.00 дБ -10.78 дБ 5:43 05-Below Black Waters
DR10 0.00 дБ -10.60 дБ 5:06 06-Chasm of Shattered Bones
DR9 0.00 дБ -10.33 дБ 10:03 07-A Rain of Ash
--------------------------------------------------------------------------------
Количество треков: 7
Реальные значения DR: DR9
Частота: 44100 Гц
Каналов: 2
Разрядность: 16
Битрейт: 923 кбит/с
Кодек: FLAC
================================================================================
[fishek.net].t15713.torrent 
Торрент: Зарегистрирован [ 2020-04-10 17:42 ] · C59388EB4146F1AA9FED358E8C4746034448801C

Скачать .torrent

Скачать

12 KB

Статус: проверено
Скачан: 0 раз
Размер: 288 MB  ·  Тип торрента
terms.php
Профиль [ЛС]
Показать сообщения:    

Текущее время: 08-Авг 06:49

Часовой пояс: UTC ± 0



Вы не можете начинать темы
Вы не можете отвечать на сообщения
Вы не можете редактировать свои сообщения
Вы не можете удалять свои сообщения
Вы не можете голосовать в опросах
Вы не можете прикреплять файлы к сообщениям
Вы можете скачивать файлы