Статистика раздачи
Размер:  5,28 GB   |    Зарегистрирован:  2 месяца 7 дней   |    Скачан:  0 раз
DL-List: Нет

Полного источника не было: Никогда

 
     
 
 

MAGNAT ®

Пол:
Мужской
Стаж:
1 год 4 месяца
Сообщений:
8807

Заговор против Америки | The Plot Against America- Год выпуска: 2020
Страна: США
Жанр: Триллер, драма
Продолжительность: ~ 01:00:00-Перевод: Профессиональный (многоголосый закадровый) | NewStudio-Режиссёр: Томас Шламми, Минки Спиро-В ролях: Вайнона Райдер, Зои Казан, Морган Спектор, Энтони Бойл, Джон Туртурро, Эжи Робертсон, Бен Коул, Майкл Кострофф.-Описание: Знаменитый пилот и приверженец изоляционизма Чарльз Линдберг победил на выборах в 1940 году и стал новым президентом США. С приходом Линдберга к власти в стране расцветает антисемитизм. Президент публично обвиняет евреев в попытке втянуть страну в войну с нацистской Германией и договаривается с Адольфом Гитлером о невмешательстве. Пока из радиоприёмников разносятся громкие речи Линдберга, молодой Филип Рот и его родные и близкие с ужасом наблюдают, как идеология нового президента готовится разрушить их жизнь.-[box=#aed8ff,#003465]Ссылка на предыдущие и альтернативные раздачи-Качество: WEB-DLRip
Формат: AVI
Видео: XviD, 704x352 (2,000), 23.976 кадров/сек, 1600 Кбит/сек
Аудио Rus: AC3, 48,0 kHz, 2 ch, 192 Кбит/сек | NewStudio
Аудио Eng: AC3, 48,0 kHz, 2 ch, 192 Кбит/сек
Субтитры: Отсутствуют
Реклама: Отсутствует-

MediaInfo

Общее
Полное имя : D:\The Plot Against America (Season 1) WEB-DLRip\The.Plot.Against.America.S01E01.WEB-DLRip.RGzsRutracker.[Wentworth_Miller].avi
Формат : AVI
Формат/Информация : Audio Video Interleave
Размер файла : 867 Мбайт
Продолжительность : 1 ч. 0 м.
Общий поток : 1 998 Кбит/сек
Программа кодирования : VirtualDubMod 1.5.10.3 | www.virtualdub-fr.org || (build 2550/release)
Библиотека кодирования : VirtualDubMod build 2550/release
Видео
Идентификатор : 0
Формат : MPEG-4 Visual
Профиль формата : Advanced Simple@L5
Настройки формата : BVOP1
Параметр BVOP формата : 1
Параметр QPel формата : Нет
Параметр GMC формата : Без точки перехода
Параметр матрицы формата : Default (MPEG)
Идентификатор кодека : XVID
Идентификатор кодека/Подсказка : XviD
Продолжительность : 1 ч. 0 м.
Битрейт : 1 600 Кбит/сек
Ширина : 704 пикселя
Высота : 352 пикселя
Соотношение сторон : 2,000
Частота кадров : 23,976 (24000/1001) кадра/сек
Цветовое пространство : YUV
Субдискретизация насыщенности : 4:2:0
Битовая глубина : 8 бит
Тип развёртки : Прогрессивная
Метод сжатия : С потерями
Бит/(Пиксели*Кадры) : 0.269
Размер потока : 694 Мбайт (80%)
Библиотека кодирования : XviD 67
Аудио #1
Идентификатор : 1
Формат : AC-3
Формат/Информация : Audio Coding 3
Коммерческое название : Dolby Digital
Идентификатор кодека : 2000
Продолжительность : 1 ч. 0 м.
Вид битрейта : Постоянный
Битрейт : 192 Кбит/сек
Каналы : 2 канала
Channel layout : L R
Частота : 48,0 КГц
Частота кадров : 31,250 кадров/сек (1536 SPF)
Метод сжатия : С потерями
Размер потока : 83,3 Мбайт (10%)
Выравнивание : Разделение по промежуткам
Продолжительность промежутка : 42 мс. (1,00 видеокадр)
Время предзагрузки промежутка : 500 мс.
Service kind : Complete Main
Аудио #2
Идентификатор : 2
Формат : AC-3
Формат/Информация : Audio Coding 3
Коммерческое название : Dolby Digital
Идентификатор кодека : 2000
Продолжительность : 1 ч. 0 м.
Вид битрейта : Постоянный
Битрейт : 192 Кбит/сек
Каналы : 2 канала
Channel layout : L R
Частота : 48,0 КГц
Частота кадров : 31,250 кадров/сек (1536 SPF)
Метод сжатия : С потерями
Размер потока : 83,3 Мбайт (10%)
Выравнивание : Разделение по промежуткам
Продолжительность промежутка : 42 мс. (1,00 видеокадр)
Время предзагрузки промежутка : 500 мс.
Service kind : Complete Main
-

Скриншоты

-
[fishek.net].t19496.torrent 
Торрент: Зарегистрирован [ 2020-05-31 12:54 ] · 17E5AF30DC003992BC7059A190E8214BCC28FF15

Скачать .torrent

Скачать

28 KB

Статус: проверено
Скачан: 0 раз
Размер: 5,28 GB  ·  Тип торрента
terms.php
Профиль [ЛС]
Показать сообщения:    

Текущее время: 08-Авг 06:47

Часовой пояс: UTC ± 0



Вы не можете начинать темы
Вы не можете отвечать на сообщения
Вы не можете редактировать свои сообщения
Вы не можете удалять свои сообщения
Вы не можете голосовать в опросах
Вы не можете прикреплять файлы к сообщениям
Вы можете скачивать файлы