Статистика раздачи
Размер:  2,38 GB   |    Зарегистрирован:  2 месяца 7 дней   |    Скачан:  0 раз
DL-List: Нет

Полного источника не было: Никогда

 
     
 
 

MAGNAT ®

Пол:
Мужской
Стаж:
1 год 4 месяца
Сообщений:
8807

ГлаварьTop Boy: Summerhouse- Год выпуска: 2011
Страна: Великобритания
Жанр: триллер, драма, криминал-Продолжительность: 00:50:00
Перевод: Профессиональный (многоголосый закадровый) TVShows
Режиссер: Ян Деманж
В ролях: Эшли Уолтерс, Кейн Робинсон, Шон Ромулус, Малкольм Камулете, Шерон Дункан Брюстер, Джакомо Манчини, Кирстон Вэйринг, Николас Пиннок, Завьен Рассел, Летиша Райт, Джофф Белл, Дэвид Хейман, Бенедикт Вонг, Сайрус Дезир, Тайо Джарретт, Чифер Аппайя, Ричи Кэмпбелл и др.-Описание: Ра'Нелл вливается в преступную среду после того, как его мать положили в психиатрическую больницу. Лондонскому драгдилеру Дюшейну приходится принять ряд непростых решений, чтобы остаться в живых и при бизнесе.
Качество: WEB-DLRip-AVC
Формат: MKV
Видео: x264, 960x400 (2.40:1), 25.000 fps, ~1400 kbps
Аудио: Russian 48.0 KHz, AC3, 6 channels, 384 Kbps |TVShows|
Субтитры: нет
Реклама: отсутствует--

MediaInfo

General
Unique ID : 198872535515576261498008066172917856918 (0x959D75063F241F992515A2888D1F3A96)
Complete name : C:\Раздачи\Top.Boy.Summerhouse.S01.WEB-DLRip-AVC.DD5.1.x264-CasStudio\Top.Boy.S01E01.Episode.1.WEB-DLRip-AVC.DD5.1.x264-CasStudio.mkv
Format : Matroska
Format version : Version 4
File size : 639 MiB
Duration : 49 min 24 s
Overall bit rate : 1 807 kb/s
Movie name : Главарь | Top Boy (S01E01) - Release by whip93 x CasStudio
Encoded date : UTC 2020-01-23 19:35:16
Writing application : mkvmerge v40.0.0 ('Old Town Road + Pony') 64-bit
Writing library : libebml v1.3.9 + libmatroska v1.5.2
Video
ID : 1
Format : AVC
Format/Info : Advanced Video Codec
Format profile : High@L4.1
Format settings : CABAC / 16 Ref Frames
Format settings, CABAC : Yes
Format settings, ReFrames : 16 frames
Codec ID : V_MPEG4/ISO/AVC
Duration : 49 min 24 s
Bit rate : 1 421 kb/s
Width : 960 pixels
Height : 400 pixels
Display aspect ratio : 2.40:1
Frame rate mode : Constant
Frame rate : 25.000 FPS
Color space : YUV
Chroma subsampling : 4:2:0
Bit depth : 8 bits
Scan type : Progressive
Bits/(Pixel*Frame) : 0.148
Stream size : 502 MiB (79%)
Title : Encoded by whip93
Writing library : x264 core 159 r2991 1771b55
Encoding settings : cabac=1 / ref=16 / deblock=1:-3:-3 / analyse=0x3:0x113 / me=umh / subme=10 / psy=1 / psy_rd=1.00:0.00 / mixed_ref=0 / me_range=32 / chroma_me=1 / trellis=2 / 8x8dct=1 / cqm=0 / deadzone=21,11 / fast_pskip=1 / chroma_qp_offset=-2 / threads=12 / lookahead_threads=3 / sliced_threads=0 / nr=0 / decimate=1 / interlaced=0 / bluray_compat=0 / constrained_intra=0 / bframes=11 / b_pyramid=2 / b_adapt=2 / b_bias=0 / direct=3 / weightb=1 / open_gop=0 / weightp=2 / keyint=250 / keyint_min=25 / scenecut=40 / intra_refresh=0 / rc=crf / mbtree=0 / crf=19.0 / qcomp=0.72 / qpmin=0 / qpmax=69 / qpstep=4 / ip_ratio=1.40 / pb_ratio=1.30 / aq=3:0.80
Language : English
Default : Yes
Forced : No
Color range : Limited
Color primaries : BT.709
Transfer characteristics : BT.709
Matrix coefficients : BT.709
Audio
ID : 2
Format : AC-3
Format/Info : Audio Coding 3
Commercial name : Dolby Digital
Codec ID : A_AC3
Duration : 49 min 24 s
Bit rate mode : Constant
Bit rate : 384 kb/s
Channel(s) : 6 channels
Channel layout : L R C LFE Ls Rs
Sampling rate : 48.0 kHz
Frame rate : 31.250 FPS (1536 SPF)
Bit depth : 16 bits
Compression mode : Lossy
Stream size : 136 MiB (21%)
Title : MVO (TVShows)
Language : Russian
Service kind : Complete Main
Default : Yes
Forced : No

Скриншоты

-
[fishek.net].t19512.torrent 
Торрент: Зарегистрирован [ 2020-05-31 13:12 ] · 218B4E40B7C3D8D0EC52FBDFE067F3836A50BDD8

Скачать .torrent

Скачать

25 KB

Статус: проверено
Скачан: 0 раз
Размер: 2,38 GB  ·  Тип торрента
terms.php
Профиль [ЛС]
Показать сообщения:    

Текущее время: 08-Авг 06:33

Часовой пояс: UTC ± 0



Вы не можете начинать темы
Вы не можете отвечать на сообщения
Вы не можете редактировать свои сообщения
Вы не можете удалять свои сообщения
Вы не можете голосовать в опросах
Вы не можете прикреплять файлы к сообщениям
Вы можете скачивать файлы