Статистика раздачи
Размер:  30,92 GB   |    Зарегистрирован:  2 месяца 7 дней   |    Скачан:  0 раз
DL-List: Нет

Полного источника не было: Никогда

 
     
 
 

MAGNAT ®

Пол:
Мужской
Стаж:
1 год 4 месяца
Сообщений:
8807

Пластиковое море / Mar de plástico
Год выпуска: 2015 - 2016
Страна: Испания
Жанр: триллер, драма, детектив
Продолжительность: 01:12:42
Перевод: Любительский (двухголосый закадровый) - ViruseProject
Режиссёр: Алехандро Бассано, Хавьер Кинтас, Норберто Лопес Амадо
В ролях: Родольфо Санчо, Педро Касабланк, Луис Фернандес, Патрик Криаду, Андреа дель Рио, Микель Фернандес, Федерико Агуадо и др.
Описание: Убийство молодой девушки в Кампоамарго усугубляет расовую напряжённость, которая существует между различными группами, проживающими в городке. Найти убийцу и выяснить мотивы преступления предстоит новому начальнику судебной полиции Эктору Агирре и его команде.

Качество: WEB-DLRip
Формат: AVI
Видео: 704x400 (1.76:1), 25 fps, XviD build 73 ~1998 kbps avg, 0.28 bit/pixel
Аудио: 48 kHz, AC3 Dolby Digital, 2/0 (L,R) ch, ~192 kbps - двухголосый
Аудио: 48 kHz, AC3 Dolby Digital, 2/0 (L,R) ch, ~192 kbps - испанский
Субтитры: русские, английские
Реклама: вырезана полностью

Список серий

1 сезон
01 (01) - Las primeras 48 horas
02 (02) - Fumigación
03 (03) - Reconstrucción
04 (04) - La prueba
05 (05) - La cámara
06 (06) - Confianza
07 (07) - La mano
08 (08) - El pasado
09 (09) - La fosa
10 (10) - Fuera de combate
11 (11) - Boris E.
12 (12) - Se cierra el círculo
13 (13) - La caza del hombre
2 сезон
01 (14) - El regreso
02 (15) - Paraíso terrenal
03 (16) - Cowboy de medianoche
04 (17) - La trituradora
05 (18) - Quid Pro Quo
06 (19) - Pit Bull
07 (20) - Vlad
08 (21) - El día de la ira
09 (22) - Marta
10 (23) - Yo confieso
11 (24) - Cazado
12 (25) - Cristina
13 (26) - Final

MediaInfo

Общее
Полное имя : X:\Уже готовые к раздачам\Mar.de.plastico.2015-2016.web-dlrip_[teko]\Season_01\s01e01_Las.primeras.48.horas.avi
Формат : AVI
Формат/Информация : Audio Video Interleave
Размер файла : 1,22 Гбайт
Продолжительность : 1 ч. 12 м.
Общий поток : 2398 Кбит/сек
Программа кодирования : VirtualDubMod 1.5.10.3 | www.virtualdub-fr.org || (build 2550/release)
Библиотека кодирования : VirtualDubMod build 2550/release
Видео
Идентификатор : 0
Формат : MPEG-4 Visual
Профиль формата : Advanced Simple@L5
Настройки формата : BVOP2 / Custom Matrix
Параметр BVOP формата : 2
Параметр QPel формата : Нет
Параметр GMC формата : Без точки перехода
Параметр матрицы формата : Выборочная
Идентификатор кодека : XVID
Идентификатор кодека/Подсказка : XviD
Продолжительность : 1 ч. 12 м.
Битрейт : 2000 Кбит/сек
Ширина : 704 пикселя
Высота : 400 пикселей
Соотношение сторон : 16:9
Частота кадров : 25,000 кадров/сек
Цветовое пространство : YUV
Субдискретизация насыщенности : 4:2:0
Битовая глубина : 8 бит
Тип развёртки : Прогрессивная
Метод сжатия : С потерями
Бит/(Пиксели*Кадры) : 0.284
Размер потока : 1,02 Гбайт (83%)
Библиотека кодирования : XviD 73
Аудио #1
Идентификатор : 1
Формат : AC-3
Формат/Информация : Audio Coding 3
Коммерческое название : Dolby Digital
Идентификатор кодека : 2000
Продолжительность : 1 ч. 12 м.
Вид битрейта : Постоянный
Битрейт : 192 Кбит/сек
Каналы : 2 канала
ChannelLayout : L R
Частота : 48,0 КГц
Частота кадров : 31,250 кадров/сек (1536 SPF)
Метод сжатия : С потерями
Размер потока : 99,8 Мбайт (8%)
Выравнивание : Разделение по промежуткам
Продолжительность промежутка : 40 мс. (1,00 видеокадр)
Время предзагрузки промежутка : 500 мс.
ServiceKind/String : Complete Main
Аудио #2
Идентификатор : 2
Формат : AC-3
Формат/Информация : Audio Coding 3
Коммерческое название : Dolby Digital
Идентификатор кодека : 2000
Продолжительность : 1 ч. 12 м.
Вид битрейта : Постоянный
Битрейт : 192 Кбит/сек
Каналы : 2 канала
ChannelLayout : L R
Частота : 48,0 КГц
Частота кадров : 31,250 кадров/сек (1536 SPF)
Метод сжатия : С потерями
Размер потока : 99,8 Мбайт (8%)
Выравнивание : Разделение по промежуткам
Продолжительность промежутка : 40 мс. (1,00 видеокадр)
Время предзагрузки промежутка : 500 мс.
ServiceKind/String : Complete Main
[fishek.net].t19522.torrent 
Торрент: Зарегистрирован [ 2020-05-31 13:24 ] · A5700D2DC21778F8A456FEBBA18E03FD2EFE9CEF

Скачать .torrent

Скачать

315 KB

Статус: проверено
Скачан: 0 раз
Размер: 30,92 GB  ·  Тип торрента
terms.php
Профиль [ЛС]
Показать сообщения:    

Текущее время: 08-Авг 05:14

Часовой пояс: UTC ± 0



Вы не можете начинать темы
Вы не можете отвечать на сообщения
Вы не можете редактировать свои сообщения
Вы не можете удалять свои сообщения
Вы не можете голосовать в опросах
Вы не можете прикреплять файлы к сообщениям
Вы можете скачивать файлы