Статистика раздачи
Размер:  7,11 GB   |    Зарегистрирован:  2 месяца 7 дней   |    Скачан:  0 раз
DL-List: Нет

Полного источника не было: Никогда

 
     
 
 

MAGNAT ®

Пол:
Мужской
Стаж:
1 год 4 месяца
Сообщений:
8807

Акушерка / Повитуха
Год выпуска: 2020
Страна: Украина, StarLight Production
Жанр: Медицина, драма, мелодрама
Продолжительность: ~ 00:47:47
Перевод: Не требуется
Субтитры: Нет
Режиссёр: Анатолий Григорьев
В ролях: Фатима Горбенко, Александр Ефремов (II), Андрей Мостренко, Ирина Гришак, Николай Боклан, Ольга Морозова, Сергей Дзялик, Анатолий Ященко, Олеся Островская, Анастасия Пустовит, Авигдор Фрейдлис
Описание: Сериал является адаптацией американского сериала. Главврач роддома Татьяна Скворцова полностью посвящает себя работе, отвоевывая рожениц и новорожденных у смерти. Но ее жизнь рушится, когда жена влиятельного бизнесмена с тяжелым сердечным недугом решает рожать не в роддоме, а у знахарки. Это оборачивается трагедией – роженица умирает, но Татьяне удается спасти ее ребенка...
Реклама: Нет
Качество: WEBRip
Формат: AVI
Видео кодек: XviD
Аудио кодек: AC3
Видео: 720x400 (1.80:1), 25 fps, XviD, ~1600 kbps avg, 0.222 bit/pixe
Аудио: 48.0 kHz, AC3 Dolby Digital, 2/0 (L,R) ch, ~ 192 kbps

MI

General
Complete name : C:01.Акушерка.(2020).WEBRip.by.Nicodem.Files-x.avi
Format : AVI
Format/Info : Audio Video Interleave
File size : 616 MiB
Duration : 47mn 47s
Overall bit rate : 1 801 Kbps
Writing application : VirtualDubMod 1.5.10.3 | www.virtualdub-fr.org || (build 2550/release)
Writing library : VirtualDubMod build 2550/release
Video
ID : 0
Format : MPEG-4 Visual
Format profile : Advanced Simple@L5
Format settings, BVOP : 1
Format settings, QPel : No
Format settings, GMC : No warppoints
Format settings, Matrix : Custom
Codec ID : XVID
Codec ID/Hint : XviD
Duration : 47mn 47s
Bit rate : 1 600 Kbps
Width : 720 pixels
Height : 400 pixels
Display aspect ratio : 16:9
Frame rate : 25.000 fps
Color space : YUV
Chroma subsampling : 4:2:0
Bit depth : 8 bits
Scan type : Progressive
Compression mode : Lossy
Bits/(Pixel*Frame) : 0.222
Stream size : 547 MiB (89%)
Writing library : XviD 73
Audio
ID : 1
Format : AC-3
Format/Info : Audio Coding 3
Mode extension : CM (complete main)
Codec ID : 2000
Duration : 47mn 47s
Bit rate mode : Constant
Bit rate : 192 Kbps
Channel(s) : 2 channels
Channel positions : Front: L R
Sampling rate : 48.0 KHz
Bit depth : 16 bits
Compression mode : Lossy
Stream size : 65.6 MiB (11%)
Alignment : Split accross interleaves
Interleave, duration : 40 ms (1.00 video frame)
Interleave, preload duration : 500 ms
[fishek.net].t19543.torrent 
Торрент: Зарегистрирован [ 2020-05-31 13:40 ] · 058CCE6904B1A65787122D98A81BDB4CC72958E1

Скачать .torrent

Скачать

19 KB

Статус: проверено
Скачан: 0 раз
Размер: 7,11 GB  ·  Тип торрента
terms.php
Профиль [ЛС]
Показать сообщения:    

Текущее время: 08-Авг 06:23

Часовой пояс: UTC ± 0



Вы не можете начинать темы
Вы не можете отвечать на сообщения
Вы не можете редактировать свои сообщения
Вы не можете удалять свои сообщения
Вы не можете голосовать в опросах
Вы не можете прикреплять файлы к сообщениям
Вы можете скачивать файлы